Movies - Other

Judwaa 2 2017 720p Esub HD Hindi GOPISAHI mkv

  • Download 5x Faster
  • Download torrent
  • Direct Download
  • Rate this torrent +  |  -
Judwaa 2 2017 720p Esub HD Hindi GOPISAHI mkv

Download FREE And Anonymously


Torrent info

Name:Judwaa 2 2017 720p Esub HD Hindi GOPISAHI mkv

Total Size: 885.59 MB

Magnet: Magnet Link

Seeds: 65

Leechers: 11

Stream: Watch Full Movie @ Movie4u

Last Updated: 2017-12-16 08:05:23 (Update Now)

Torrent added: 2017-11-29 17:20:04



CyberGhost VPN For Torrents

Torrent Files List


Judwaa 2 2017 720p Esub HD Hindi GOPISAHI.mkv (Size: 885.59 MB) (Files: 1)

 Judwaa 2 2017 720p Esub HD Hindi GOPISAHI.mkv

885.59 MB
 

tracker

leech seeds
 

Torrent description

http://lookimg.com/images/2017/11/29/gbSVt.jpg
Format : Matroska
Format version : Version 4 / Version 2
File size : 886 MiB
Duration : 2 h 19 min
Overall bit rate : 890 kb/s
Movie name : Judwaa 2 2017

Video
Format : AVC
Codec ID : V_MPEG4/ISO/AVC
Duration : 2 h 19 min
Bit rate : 800 kb/s
Width : 1 280 pixels
Height : 528 pixels
Display aspect ratio : 2.40:1
Frame rate mode : Constant
Frame rate : 25.000 FPS
Chroma subsampling : 4:2:0
Bit depth : 8 bits
Stream size : 796 MiB (90%)
Writing library : x264

Audio
Format : AAC
Duration : 2 h 19 min
Bit rate : 87.9 kb/s
Channel(s) : 6 channels
Channel positions : Front: L C R, Side: L R, LFE
Sampling rate : 44.1 kHz
Frame rate : 43.066 FPS (1024 SPF)
Stream size : 87.4 MiB (10%)
Language : Hindi

Text
Language : English
http://lookimg.com/images/2017/11/29/gbRo9.jpg
http://lookimg.com/images/2017/11/29/gb3ad.jpg
http://lookimg.com/images/2017/11/29/gbs18.jpg

related torrents

Torrent name

health leech seeds Size
 


comments (0)

Main Menu

 

Sitemap